#TITLE:Salva Nos;
#SUBTITLE:- NOIR;
#ARTIST:Kajiura Yuki;
#TITLETRANSLIT:;
#SUBTITLETRANSLIT:;
#ARTISTTRANSLIT:;
#CREDIT:True Ancestor;
#BANNER:NoirBanner.png;
#BACKGROUND:Noir1.png;
#LYRICSPATH:;
#CDTITLE:trueancestor.png;
#MUSIC:Noir - Salva Nos.mp3;
#OFFSET:0.040;
#SAMPLESTART:32.284;
#SAMPLELENGTH:29.980;
#SELECTABLE:YES;
#BPMS:0.000=150.000,477.000=37.500,477.500=75.000,478.500=112.500,479.625=150.000,481.125=187.500,483.000=225.000,484.500=300.000,489.500=150.000;
#STOPS:;
#BGCHANGES:;
// cache tags:
#FIRSTBEAT:4.000;
#LASTBEAT:657.000;
#SONGFILENAME:songs/Otaku's Dream 3rd Anime Mix/[TrueAncestor] Salva Nos - NOIR/Salva Nos.sm;
#HASMUSIC:1;
#HASBANNER:1;
#MUSICLENGTH:268.956;
// end cache tags

//---------------dance-single - ----------------
#NOTES:
     dance-single:
     :
     Hard:
     10:
     0.701,0.733,0.625,0.219,0.255,1093.000,168.000,59.000,0.000,0.000:

0000
0000
0000
0000
,
0110
1100
0000
0000
0000
0000
0000
0000
,
0000
0000
0000
0000
,
1000
0000
0000
0000
,
0000
0000
0000
0000
0000
0000
0011
0110
,
0000
0000
0000
0000
,
0000
0000
0000
0000
,
0001
0001
0001
0001
0000
0000
0000
0000
,
0000
0000
0000
0000
0000
0010
0010
0000
0000
0000
0010
0000
0000
0000
0000
0000
,
0000
0000
0000
0000
0000
0010
0000
0000
0000
0000
0000
0000
0000
1000
0000
0000
,
0000
0000
1000
0000
0000
0000
0000
1000
0000
0100
0000
0001
0000
0000
0000
0000
,
1000
0000
0000
0000
,
0000
1001
1100
0101
,
1100
0110
1001
0101
,
0110
0011
0110
0101
,
1010
1100
0110
0101
,
1100
0101
0110
1001
,
0101
0011
1100
1010
,
1100
0101
0110
0101
,
0011
1100
1001
0101
,
0110
0000
1000
1001
0000
2000
0000
0020
,
3030
0101
0010
1100
0000
0002
0000
2000
,
3003
1100
0100
0011
0000
2000
0000
0200
,
3300
1010
0100
0101
0000
2000
0000
0002
,
3003
0011
0100
0101
0000
0200
0000
0002
,
0303
0110
1000
0101
0000
0020
0000
0200
,
0330
1001
0100
0101
0000
0002
0000
0200
,
0303
1010
0100
1010
0000
0200
0000
2000
,
3300
0000
1001
0000
0001
0010
0100
0000
1000
0000
0100
0000
1000
0000
1000
0010
,
0000
0010
1000
0000
0100
0010
0001
0000
0100
0000
0001
0000
0100
0000
0001
0100
,
0000
0100
0001
0000
1000
0001
1000
0000
1000
0000
1000
0000
0001
0000
0001
0100
,
0000
0010
1000
0000
1000
0100
0010
0000
1000
0000
0001
0000
1000
0000
0100
0010
,
0000
0010
0001
0000
1001
0000
0100
0000
0101
0000
0010
0000
1010
0000
0100
0000
,
1100
0010
0101
0001
0001
1001
0000
0000
,
1000
0000
1000
0100
0001
0100
1000
0010
,
0001
0010
1000
0100
0001
0100
1000
0010
,
0001
0010
1000
1001
0000
0200
0000
0020
,
0330
1100
0010
0101
0000
0020
0000
0200
,
0330
1001
1001
0001
0001
0001
1100
1000
,
1000
1000
0011
0010
0010
0010
0110
0100
,
0100
0000
0100
0000
0010
0001
0100
0000
0010
0000
0100
0000
0010
0000
0100
0010
,
0000
0010
1000
0000
1000
0010
0100
0000
1000
0000
0100
0000
0010
0000
0100
0010
,
0000
0010
0001
0000
0001
1000
0100
0000
0100
0000
1000
0000
0100
0000
0100
0010
,
0000
1000
0010
0000
0001
0010
0100
0000
1000
0000
0100
0000
1000
0000
0001
0010
,
0000
0010
0001
0000
1000
0000
0000
0100
0000
0000
0010
0000
0001
0000
0000
0010
,
0000
0000
0000
0000
0010
0000
0000
0000
0100
0000
0000
0000
0000
0000
0000
1000
0001
0000
0000
0000
0000
0000
0000
0000
0000
0000
0000
0000
0000
0000
0000
0000
,
0000
1000
1000
0000
0100
0000
1000
0000
,
0100
1000
0001
0100
,
0010
0000
0010
0100
0001
0000
0000
1000
0000
0000
0001
0000
1000
0000
0000
0100
,
0000
0000
0000
0000
0010
0000
0000
0000
0100
0000
0000
0000
0000
0000
0000
0010
0100
0000
0000
0000
0000
0000
0000
0000
0000
0000
0000
0000
0000
0000
0000
0000
,
0000
0010
0010
0000
1000
0000
0001
0000
,
0100
0010
1000
0100
,
0001
0000
1000
0001
0010
0000
0000
0010
0000
0000
0010
0000
1000
0000
0000
1000
,
0000
0000
1000
0000
0001
0000
0000
0001
0000
0000
0001
0000
0000
0000
0000
0000
,
0000
0000
0000
0000
0100
0000
0000
0100
0000
0000
0100
0000
0010
0000
0000
0010
,
0000
0000
0010
0000
1000
0000
0000
1000
0000
0000
1000
0000
0000
0000
0000
0000
,
1000
0000
0000
0000
1000
0100
0010
0000
0001
0000
0010
0000
0100
0000
1000
0100
,
0000
0010
0001
0000
0001
0010
0100
0000
1000
0000
0100
0000
0010
0000
0010
0100
,
0000
0100
0010
0000
1000
0001
0100
0000
0100
0000
0010
0000
0100
0000
0001
0100
,
0000
0100
0001
0000
0001
1000
0010
0000
0010
0000
0100
0000
0010
0000
0100
0001
,
0000
0001
1000
0000
0010
0000
0100
0000
1000
0000
0100
0000
0010
0000
0100
0000
,
0010
0100
1000
0001
0100
0010
1000
0001
,
0100
0010
0001
0010
0100
1000
0100
0010
,
1000
0100
0010
0001
1000
0001
1000
0100
,
1000
0010
1000
0001
1000
0100
0001
0100
,
1000
0010
1000
0100
0001
0100
1000
0010
,
1000
0100
0001
0100
0001
0100
0010
0001
,
0010
0100
1000
0100
0001
0010
1000
0010
,
0001
0000
0100
0000
0001
1000
0001
0000
0100
0000
0001
0000
0100
0000
1000
0010
,
0000
0010
0100
0000
0100
0010
0100
0000
1000
0000
0001
0000
1000
0000
0001
0100
,
0000
0100
0001
0000
0010
0001
0010
0000
0100
0000
0100
0000
1000
0000
1000
0010
,
0000
0010
1000
0000
1000
0100
1000
0000
0100
0000
0010
0000
0100
0000
0001
0010
,
0000
0100
0001
0000
1100
0000
0100
0000
0110
0000
0010
0000
0011
0000
0010
0000
,
0110
0100
1100
0001
0001
0001
0000
0000
,
1000
0000
1010
1000
1000
1000
0110
0010
,
0010
0010
0011
0001
0001
0001
0101
0100
,
0100
0100
0001
1001
0000
0200
0000
0020
,
0000
0330
1100
0000
0100
0000
0110
0000
0000
0000
2000
0000
0000
0000
0002
0000
,
0000
3003
1001
0000
0010
0000
0100
0000
1000
0000
0010
0000
0100
0000
1000
0000
,
0010
0100
1000
0100
0010
1000
0100
0010
,
1000
0000
0100
0000
0010
0001
0010
0000
0001
0000
0001
0000
1000
0000
0100
1000
,
0000
1000
0100
0000
0010
0100
0010
0000
0010
0000
0010
0000
0100
0000
0100
0010
,
0000
1000
0010
0000
0100
0001
0100
0000
0001
0000
0001
0000
0001
0000
0001
1000
,
0000
1000
0001
0000
0001
0010
0001
0000
0100
0000
0100
0000
0010
0000
1000
0010
,
0000
0100
0010
0000
1100
0000
1100
0000
0100
0000
0001
0000
0100
0000
0010
0000
,
0100
0001
0011
0011
0100
1000
0100
1000
,
0010
0100
0110
0110
1000
0100
0001
0100
,
1000
0100
1100
1100
0100
0001
0100
0001
,
0010
0001
0011
0011
1000
0001
1000
0100
,
1000
0001
1001
1001
1000
0100
1000
0010
,
0100
0010
0101
0101
0010
0001
0010
0100
,
1000
0100
0110
0110
1000
0001
0100
0001
,
0100
0010
0101
0101
1000
0010
0001
0010
,
1000
0010
1010
1010
0100
0001
0100
0010
,
0001
0100
0101
0101
1000
0001
1000
0100
,
1000
0010
1010
1010
0100
0010
0100
0010
,
0100
0001
0011
0011
1000
0100
0010
1000
,
0100
0010
0101
0101
0001
0010
0100
0001
,
0010
0100
1100
1100
0100
0010
0100
1000
,
0001
1000
1001
1001
1000
0100
0010
0001
,
0001
1000
0001
1000
1001
0000
0001
0000
1100
0000
1000
0000
0101
0000
0001
0000
,
1100
1000
0101
0000
0110
0000
1000
0100
,
0010
0001
0011
0001
0101
0001
0011
0001
,
0101
0001
0101
0000
1001
0000
0010
0001
,
0100
0100
0110
1000
1100
1000
1010
1000
,
1100
1000
1010
0000
0110
0000
0001
0010
,
0100
1000
0110
1000
0110
0001
0110
1000
,
0110
0001
0110
0000
1100
0000
1000
0001
,
1000
0001
1001
0010
1001
0100
1001
0010
,
1001
0100
1001
0000
0110
0000
1000
0001
,
1000
0001
0101
1000
1100
0001
0101
1000
,
1100
0001
0101
0000
0110
0000
1000
0001
,
0100
0001
0010
0001
0010
0100
1000
0100
,
0010
0100
0010
0001
0010
0100
0010
0100
,
1000
0100
0010
0100
0010
0001
0010
0100
,
0010
0100
1000
0100
0010
0100
0010
0001
,
0010
0100
2001
0010
0000
0100
0000
0010
,
0000
0001
0001
0001
0000
0001
0000
0100
,
0000
0010
0010
0010
0000
0001
0000
0100
,
0000
3010
2002
0000
0000
0000
0000
0000
,
0000
0000
0000
0000
,
0000
0000
0000
0000
,
0000
0000
0000
0000
0000
3003
0110
0000
0110
0000
0000
0000
2000
0000
0000
0000
,
0002
0000
0000
3003
0010
0000
0001
0000
0101
0000
0000
0000
2000
0000
0000
0000
,
0200
0000
0000
3300
1000
0000
0010
0000
0110
0000
0000
0000
0002
0000
0000
0000
,
2000
0000
0000
3003
0001
0000
0100
0000
0110
0000
0000
0000
0020
0000
0000
0000
,
0200
0000
0000
0330
1000
0000
0001
0000
0101
0000
0000
0000
0002
0000
0000
0000
,
0200
0000
0000
0303
0010
0000
0100
0000
1010
0000
0000
0000
0200
0000
0000
0000
,
0020
0000
0000
0330
0100
0000
0001
0000
1100
0000
0000
0000
2000
0000
0000
0000
,
0200
0000
0000
3300
0010
0000
0100
0000
0110
0000
0000
0000
0020
0000
0000
0000
,
0002
0000
0000
0033
0100
0000
0010
0100
1000
0000
0100
0000
1000
0000
0100
0000
,
1000
0100
0000
0100
0010
0000
0010
0001
0010
0000
0100
0000
0001
0000
0100
0000
,
0100
0001
0000
0001
0100
0000
1000
0001
0100
0000
0100
0000
0010
0000
0100
0000
,
1000
0010
0000
0010
1000
0000
0100
0010
0001
0000
0001
0000
0100
0000
0010
0000
,
0001
0010
0000
0010
0001
0000
1001
0000
0000
0000
0110
0000
0000
0000
1100
0000
,
0000
0101
0000
0011
0000
0000
1000
0000
,
0000
0110
0000
0010
0010
0010
0010
0100
,
0100
0100
0100
0001
0001
0001
0001
1000
,
1000
1000
1000
0010
0101
0000
0010
0000
,
0100
0000
1000
0001
0101
0000
0010
0000
,
0100
0000
0010
1000
0100
1000
0100
0010
,
0100
0010
0001
0010
0100
0001
0100
1000
,
0001
0000
1000
0000
0100
0000
0010
0100
1000
0000
1000
0000
0100
0000
1000
0000
,
1000
0100
0000
0100
1000
0000
0100
0001
0100
0000
0010
0000
0100
0000
0001
0000
,
0001
0010
0000
0010
0001
0000
0001
1000
0001
0000
1000
0000
0001
0000
1000
0000
,
0010
1000
0000
1000
0010
0000
0100
0010
0100
0000
0001
0000
0010
0000
0001
0000
,
0100
0001
0000
0001
0100
0000
0010
0001
0010
0000
0100
0000
1000
0000
0100
0000
,
0100
0010
0000
0010
0001
0000
1000
0001
1000
0000
0010
0000
0100
0000
0010
0000
,
0010
0001
0000
0001
0010
0000
1000
0100
1000
0000
0010
0000
0100
0000
0010
0000
,
0010
0001
0000
0001
0100
0000
0100
0010
0100
0000
1000
0000
0010
0000
1000
0000
,
0100
0010
0000
1000
0010
0000
2002
0000
0000
0000
0000
0000
0000
0000
0000
0000
,
0000
3003
0010
0000
0010
0000
1000
0100
,
1000
0100
0010
0100
0001
0100
0020
0000
,
0000
0030
1000
0000
0100
0000
0100
0000
0010
0000
0001
0000
0001
0000
1000
0000
,
0100
0100
0010
1000
1000
0001
0010
0010
,
0100
1000
1000
0001
0010
0010
0100
0001
,
0001
0000
0010
0000
1000
0000
1000
0000
0200
0000
0000
0300
0010
0100
0020
0000
,
0000
0000
0000
0030
0100
0000
0000
0000
0001
0000
0001
0000
0000
0000
0000
0000
,
1000
0001
0000
0000
0002
0000
0000
0000
2003
0000
0000
0000
3200
0000
0000
0000
,
0320
2030
3002
0203
,
0320
0000
2030
0000
3100
0010
0100
0001
,
0100
0000
1000
0000
0100
0000
1000
0100
0010
0001
0010
0100
1000
0100
0010
0001
,
0010
0100
1000
0100
0010
0001
0010
0100
1000
0100
0010
0001
0010
0100
1000
0100
,
0010
0001
0000
0000
0010
0200
0000
0000
0300
0100
0000
0000
1000
0002
0000
0000
,
0000
0000
0000
0003
1100
0000
0000
0000
0000
0000
0000
0000
0000
0000
0000
0000
;

//---------------dance-single - ----------------
#NOTES:
     dance-single:
     :
     Medium:
     6:
     0.406,0.427,0.089,0.033,0.004,731.000,24.000,9.000,0.000,0.000:


0000
0000
0000
0000
,
0001
0001
0000
0000
0000
0000
0000
0000
,
0000
0000
0000
0000
,
0100
0000
0000
0000
,
0000
0000
0000
0000
0000
0000
0010
0010
,
0000
0000
0000
0000
,
0000
0000
0000
0000
,
1000
0001
1000
0001
0000
0000
0000
0000
,
0000
0000
0000
0000
0000
0000
0000
0000
0000
0000
0000
2002
0000
0000
0000
0000
,
0000
0000
0000
0000
,
0000
0000
0000
0000
0000
0000
0000
0000
0000
0000
0000
0000
3000
0000
0000
0200
0000
0000
0300
0200
0000
0000
0000
0000
,
0000
0000
0000
0000
0000
0000
0000
0000
0000
0000
0000
0300
0200
0000
0000
0000
,
0000
0303
0010
0000
1000
0000
0010
0000
,
0110
0010
0001
1000
,
1100
0100
0001
1000
,
0101
1000
0010
0001
,
0011
1000
0010
1000
,
1010
0001
1000
0010
,
1001
1000
0100
0001
,
0110
1000
0001
1000
,
1001
1000
0001
1000
,
0100
0010
0100
0000
0001
0000
1000
0000
,
1000
0100
1000
0000
0010
0000
0100
0000
,
0010
0001
0010
0000
0100
0000
0001
0000
,
1000
0001
1000
0000
1000
0000
0100
0000
,
0010
0100
0010
0000
0100
0000
0001
0000
,
0100
0001
0100
0000
1000
0000
0001
0000
,
1000
0010
1000
0000
0001
0000
1000
0000
,
0001
1000
0001
0010
0100
0000
1000
0100
,
0010
0000
0001
0010
0100
0000
1000
0100
,
0010
0000
0001
0010
0100
0000
1000
0100
,
0010
0000
0001
0010
0100
0000
1000
0100
,
0010
1000
1000
1000
,
0001
0100
0001
0000
0010
0000
0100
0000
,
0010
0001
0010
0000
1000
0000
0001
0000
,
1000
0100
1000
0000
0010
0000
0100
0000
,
0010
0100
0010
0000
1000
0000
0100
0000
,
0010
0001
0010
0000
1000
0000
0001
0000
,
1000
0100
1000
0000
0001
0000
0001
0000
,
1000
1000
0010
0010
,
0100
0000
1000
0100
0010
0000
0001
0010
,
0100
0000
1000
0001
1000
0000
0100
0010
,
0100
0000
1000
0010
1000
0000
0001
0100
,
0001
0000
1000
0100
0010
0000
0001
0010
,
0100
1000
1000
1000
,
0101
0010
1000
0010
,
0101
0100
0001
1000
,
0011
0010
1000
0001
,
1100
0100
1000
0010
,
0110
0010
1000
0001
,
0101
1000
0010
1000
,
0011
1000
0010
1000
,
0101
0100
0001
1000
,
0011
0100
0010
1000
,
0101
0010
0100
0001
,
0011
0001
0010
1000
,
0110
0000
0001
0010
0100
0000
1000
0100
,
0010
0000
1000
0001
1000
0000
0100
0010
,
0100
0000
0010
0001
0010
0000
1000
0100
,
1000
0000
1000
0100
0010
0000
0001
0010
,
0100
1000
0001
0100
,
0010
0100
0010
0000
1000
0000
1000
0000
,
0001
0100
0001
0000
0010
0000
0100
0000
,
0001
0100
0001
0000
1000
0000
0100
0000
,
0010
0100
0010
0000
0001
0000
1000
0000
,
1000
0100
1000
0000
1000
0000
1000
0000
,
0010
0001
0010
0000
1000
0000
1000
0000
,
0100
0001
0100
0000
0010
0000
0010
0000
,
0100
0010
0100
0010
0100
0000
1000
0001
,
1000
0000
1000
0100
1000
0000
0001
1000
,
0001
0000
0010
0001
0010
0000
0100
0001
,
0100
0000
1000
0100
1000
0000
1000
0001
,
1000
0010
0100
0010
,
1000
0001
1000
0000
1000
0000
1000
0000
,
0001
0100
0001
0000
0010
0000
0010
0000
,
0010
0001
0010
0000
0100
0000
0100
0000
,
1000
0100
1000
0000
0010
0000
0100
0000
,
0001
0100
0001
0000
1000
0000
1000
0000
,
0010
0100
0010
0000
0001
0000
0010
0000
,
0100
0001
0100
0000
0010
0000
1000
0000
,
1000
0001
1000
0100
0010
0000
0001
0010
,
0100
0000
0001
0010
0100
0000
1000
0100
,
0010
0000
1000
0100
0010
0000
0001
0010
,
0100
0000
1000
0100
0010
0000
0001
0010
,
0100
0000
1000
1000
0000
1000
0000
1000
,
0000
0010
0001
0001
0000
0100
0000
0100
,
0000
0010
1000
1000
0000
0100
0000
0100
,
0000
0010
0001
0001
0000
0100
0000
0100
,
0000
0100
0010
0010
0000
1000
0000
1000
,
0000
0001
1000
1000
0000
0100
0000
0100
,
0000
0010
0001
0001
0000
1000
0000
0001
,
0000
0001
1000
1000
0000
0100
0000
0010
,
0000
0010
1000
1000
0000
0001
0000
0001
,
0000
0001
0010
0010
0000
0100
0000
0100
,
0000
1000
0001
0001
0000
0010
0000
0010
,
0000
0001
0100
0100
0000
1000
0000
1000
,
0000
1000
0010
0010
0000
1000
0000
0100
,
0000
0100
1000
1000
0000
0010
0000
0100
,
0000
0001
0010
0010
0000
0100
0000
0100
,
0000
1000
0100
0100
0000
1000
0000
1000
,
0000
0001
0010
0000
0010
0000
0010
0000
,
0010
0100
0100
1000
,
1000
1000
0001
0001
,
0001
0100
0100
0100
,
0010
0010
0010
1000
,
1000
1000
0001
0001
,
0001
0100
0100
0100
,
0010
0010
0010
1000
,
1000
1000
0100
0100
,
0100
0010
0010
0010
,
1000
1000
1000
0001
,
0001
0001
0100
0100
,
0100
0010
0010
0010
,
0100
0100
0100
1000
,
1000
1000
0100
0100
,
0100
0010
0010
0010
,
0001
0001
0001
1000
,
1000
1000
0100
0100
,
0100
1000
1000
1000
,
0010
0220
0000
0000
,
0000
0000
0000
0000
,
0000
0000
0000
0000
,
0000
0000
0330
1000
0000
1000
0000
1000
,
0000
0001
0100
0001
0000
0010
0000
0010
,
0000
0100
0001
0100
0000
0010
0000
0010
,
0000
1000
0010
1000
0000
0100
0000
0100
,
0000
1000
0100
1000
0000
0010
0000
0010
,
0000
0100
0001
0100
0000
0010
0000
0010
,
0000
0010
0001
0010
0000
1000
0000
1000
,
0000
0001
1000
0001
0000
1000
0000
1000
,
0000
0100
0010
0100
0010
0001
0000
1000
,
0100
0010
0000
0100
0010
0001
0000
1000
,
0100
0010
0000
0001
0010
0100
0000
0010
,
0100
1000
0000
1000
0100
0010
0000
0100
,
0010
0001
0000
1000
0000
0001
0000
0100
,
0000
0010
0001
0010
0000
1000
0000
1000
,
0000
0010
0100
0010
0000
0001
0000
0001
,
0000
0100
0010
0100
0000
1000
0000
1000
,
0000
0010
0001
0010
0000
0100
0000
0100
,
0000
0001
0100
0001
0000
1000
0000
1000
,
0000
0010
1000
0010
0000
0100
0000
0100
,
0000
0010
0100
0010
0000
1000
0000
1000
,
0000
0001
0100
0001
0010
0100
0000
1000
,
0100
0010
0000
0100
1000
0100
0000
0010
,
0001
0010
0000
1000
0100
1000
0000
0010
,
0100
0010
0000
1000
0001
1000
0000
0001
,
0100
0001
0000
0010
0001
0010
0000
1000
,
0100
1000
0000
1000
0100
0010
0000
0001
,
0010
0100
0000
1000
0100
0010
0000
1000
,
0100
0010
0000
0100
0010
0100
0000
0001
,
0010
0100
0000
2002
0000
0000
0000
0000
,
0000
0000
0000
0000
,
0000
0000
0000
0000
,
0000
0000
0000
3003
0000
1000
0000
0100
,
0000
1000
0000
0100
0000
0010
0000
0100
,
0000
0001
0000
1000
0000
0100
0000
1000
,
0000
0010
0000
0100
0000
0001
0000
1000
,
0000
0100
0000
1000
0000
0100
0000
0010
,
0000
0100
0000
0001
0000
1000
0000
0001
,
0000
1000
0000
0100
0000
1000
0000
0010
,
0000
0001
0000
0010
0000
0100
0000
0001
,
0000
0100
0000
1000
0100
0010
1000
0100
,
0010
1000
0100
0010
1000
0100
0010
1000
,
0100
0010
0000
0010
0000
0010
0000
0010
,
0000
1001
0000
0000
;

//---------------dance-single - ----------------
#NOTES:
     dance-single:
     :
     Challenge:
     12:
     1.000,1.000,1.000,0.309,0.792,1503.000,337.000,83.000,0.000,0.000:




0000
0000
0000
0000
,
1010
0011
0000
0000
0000
0000
0000
0000
,
0000
0000
0000
0000
,
1001
0000
0000
0000
,
0000
0000
1010
1001
0100
0100
0001
0001
,
1000
1000
0011
1001
0000
1000
1000
0110
,
0000
0100
0100
0001
0011
1100
0000
0000
,
1010
0110
0011
0110
0000
0000
0000
0000
,
0000
0000
0000
0000
0000
0001
1010
0000
0000
0000
2002
0000
0000
0000
0000
0000
,
0000
0000
0000
0000
0003
0000
0000
0000
3000
0100
0022
0000
0000
0000
0000
0000
0033
0000
0000
0000
0000
0000
0000
0000
0000
0000
2002
0000
0000
0000
0000
0000
,
0000
0000
0000
0000
0000
0000
3003
0000
0200
0000
0000
0000
0000
0000
0000
0000
0000
0000
0000
0300
0000
0012
0000
0000
0000
0000
0000
2003
0000
0000
0000
0000
0000
3002
0000
0000
0000
0000
0000
0000
0000
0000
0000
0000
0000
0000
0200
0000
,
0000
0000
0000
0000
,
0000
0303
1100
0100
0011
0010
1010
0100
,
0101
0010
1100
1000
0011
0001
1010
1000
,
0101
0001
1100
0100
0011
0010
1010
0100
,
0101
0010
1100
1000
0011
0001
1010
1000
,
0101
0001
1100
0100
0011
0010
1010
0100
,
0101
0010
1100
1000
0011
0001
1010
1000
,
0101
0001
1100
0100
0011
0010
1010
0100
,
0101
0010
1100
1000
0011
0001
1010
1000
,
0101
0000
0001
0000
1001
0000
0100
0000
1000
0000
0001
0000
1100
0000
1000
0001
,
0010
0000
0100
0000
1010
0000
0001
0000
0100
0000
1000
0000
0101
0000
1000
0100
,
0010
0000
0100
0000
0011
0000
1000
0000
0010
0000
0100
0000
1001
0000
0100
0001
,
0010
0000
0001
0000
1001
0000
0100
0000
1000
0000
0010
0000
0110
0000
0010
0100
,
1000
0000
0100
0000
1010
0000
0001
0000
0100
0000
1000
0000
0011
0000
0001
1000
,
0010
0000
0100
0000
1010
0000
0100
0000
1000
0000
0010
0000
1100
0000
0001
1000
,
0100
0000
0010
0000
1001
0000
0010
0000
0100
0000
0001
0000
1010
0000
0100
0010
,
1000
0000
0100
0000
0011
0000
1000
0000
0100
0000
0010
0000
0101
0000
1000
0100
,
0001
0000
0100
0000
1001
0001
0010
0000
0101
0000
1000
0000
0101
0000
1000
0010
,
0000
0010
1000
0000
0101
0010
0100
0000
1001
0000
0010
0000
1001
0000
0001
1000
,
0000
1000
0001
0000
0101
0010
0001
0000
0110
0000
1000
0000
0110
0000
0001
0010
,
0000
1000
0010
0000
1100
0001
0100
0000
1010
0000
0100
0000
1010
0000
0010
0100
,
0000
0001
0100
0000
1002
0000
0103
0000
0021
0000
1030
0000
1200
0000
0310
0000
,
0102
0013
0120
1000
0130
0021
1000
0130
,
2010
3001
1020
0100
0001
0130
2010
0100
,
0001
3100
0012
0100
1000
0013
0021
0100
,
1000
0031
0210
0010
0001
1000
0010
1300
,
1002
0103
2010
0100
0001
0010
0100
0001
,
0010
3100
1020
0100
0001
0130
1002
0100
,
1000
0013
1020
0001
0100
1030
0201
1000
,
0010
0000
1300
0000
0110
0001
1000
0000
0101
0000
1000
0000
0101
0000
0100
0010
,
0000
1000
0001
0000
1010
0001
1000
0000
0110
0000
1000
0000
0110
0000
1000
0100
,
0000
0010
0100
0000
1001
0010
0100
0000
0101
0000
0010
0000
0101
0000
0100
1000
,
0000
0001
0100
0000
0011
0010
1000
0000
0011
0000
0100
0000
0011
0000
0100
0010
,
0000
0100
1000
0001
1000
0000
0000
0101
0000
0000
0010
0000
1000
0000
0000
1001
,
0000
0000
0000
0000
0100
0000
0000
0000
0010
0000
0000
0000
0000
0000
0000
1000
0101
0000
0000
0000
0000
0000
0000
0000
0000
0000
0000
0000
0000
0000
0000
0000
,
0000
0010
0010
0000
0000
1010
0000
1100
,
0000
1010
0100
1001
0000
0101
0000
1100
,
0000
0000
0011
0100
1100
0000
0000
0011
0000
0000
0100
0000
1000
0000
0000
1100
,
0000
0000
0000
0000
0010
0000
0000
0000
0001
0000
0000
0000
0000
0000
0000
0001
1100
0000
0000
0000
0000
0000
0000
0000
0000
0000
0000
0000
0000
0000
0000
0000
,
0000
0001
0001
0000
0000
1001
0000
0011
,
0000
1001
0100
0011
0000
0101
0000
1100
,
0000
0000
0000
0000
0001
0010
0100
1000
1001
0000
0000
0000
0000
0000
1001
0000
0000
0000
0000
0000
0100
0000
0000
0000
0010
0000
0000
0000
0000
0000
1100
0000
,
0000
0000
1000
0000
0001
0000
0000
1001
0000
0000
0100
0000
0000
0000
0101
0000
,
0000
0000
0000
0000
1001
0000
0000
0010
0101
0000
0000
0000
0000
0000
1100
0000
0000
0000
0000
0000
0100
0000
0000
0000
0010
0000
0000
0000
0000
0000
1010
0000
,
0000
0000
0100
0000
0001
0000
0000
0011
0000
0000
0100
0000
0000
0000
0000
0000
,
0010
0000
0000
0000
1010
0100
0010
0000
1001
0000
0010
0000
1001
0000
0001
0010
,
0000
0010
0001
0000
0101
0010
0100
0000
1010
0000
0100
0000
1010
0000
0010
0100
,
0000
0100
0001
0000
1010
0100
0001
0000
0101
0000
1000
0000
0101
0000
0001
0010
,
0000
0010
0100
0000
1001
0001
0100
0000
1100
0000
0010
0000
1100
0000
0001
0010
,
0000
1000
0001
0000
1010
0000
0100
0000
1000
0000
0010
0000
1100
0000
0001
0010
,
1000
0000
0001
0000
1010
0000
0100
0000
1000
0000
0001
0000
1001
0000
0100
0001
,
1000
0000
0001
0000
0101
0000
0001
0000
1000
0000
0001
0000
0110
0000
0010
0001
,
0100
0000
1000
0000
1010
0000
0001
0000
0100
0000
0010
0000
0101
0000
0001
1000
,
0100
0000
1000
0000
0011
0000
1000
0000
0100
0000
1000
0000
0110
0000
0001
0100
,
1000
0000
0001
0000
1001
0000
0010
0000
1000
0000
0010
0000
1100
0000
1000
0001
,
0100
0000
0010
0000
0011
0000
0100
0000
0010
0000
0100
0000
0011
0000
1000
0001
,
0010
0000
0100
0000
1100
0000
0001
0000
1000
0000
0100
0000
0011
0000
0100
0010
,
1000
0000
0100
0000
1001
0100
0001
0000
0110
0000
1000
0000
0110
0000
1000
0010
,
0000
0010
0100
0000
0011
0100
0010
0000
1001
0000
0100
0000
1001
0000
0010
0100
,
0000
0100
0001
0000
1001
0010
0100
0000
0011
0000
0100
0000
0011
0000
1000
0001
,
0000
0001
0010
0000
0011
0100
0001
0000
1100
0000
0010
0000
1100
0000
1000
0010
,
0000
0100
0001
0000
0102
0000
1003
0000
0210
0000
1300
0000
0021
0000
0130
0000
,
2100
3001
0102
1000
0103
1020
0001
0130
,
1020
1030
0012
0100
0010
0103
2100
0010
,
0001
3001
0102
0010
0100
1003
0021
0100
,
1000
1030
0102
1000
0100
1000
0010
0100
,
0010
1003
2001
0100
0010
0100
0001
0001
,
0100
3001
1200
0010
1000
0301
1002
0010
,
0100
0013
0021
0100
1000
0130
2001
0100
,
0010
0000
3100
0000
0011
0010
1000
0000
1100
0000
0001
0000
1100
0000
0010
0001
,
0000
0001
0010
0000
1100
0001
1000
0000
0110
0000
1000
0000
0110
0000
0010
1000
,
0000
1000
0001
0000
0101
0010
1000
0000
1001
0000
0010
0000
1001
0000
0100
0010
,
0000
1000
0001
0000
1010
0100
0001
0000
0011
0000
1000
0000
0011
0000
0010
1000
,
0000
1000
0010
0000
1010
0001
1000
0000
0101
0000
1000
0000
0110
0000
0100
0000
,
0001
1000
0100
0000
0100
0001
0100
0000
1010
0000
0100
0000
1001
0000
0010
0000
,
0100
1000
0010
0000
0010
0001
0100
0000
1010
0000
0100
0000
0011
0000
0100
0000
,
0010
0001
1000
0000
0010
1000
0001
0000
1001
0000
0100
0000
1010
0000
0100
0000
,
0001
0010
1000
0100
1000
0010
1000
0000
0101
0000
1000
0000
1010
0000
0100
0000
,
0010
0100
1000
0000
1000
0010
0100
0000
0101
0000
1000
0000
0011
0000
0100
0000
,
0010
1000
0100
0000
0001
0010
1000
0000
1100
0000
0010
0000
0101
0000
1000
0000
,
0100
0001
0010
0000
0100
1000
0001
0000
0110
0000
1000
0000
1010
0000
0100
0000
,
0001
1000
0100
0001
0010
0001
0100
0000
1001
0000
0100
0000
1010
0000
0100
0000
,
0010
0100
0001
0000
1000
0100
0010
0000
1100
0000
0001
0000
1100
0000
0010
0000
,
0100
1000
0001
0000
1000
0010
0100
0000
0101
0000
0100
0000
1010
0000
0100
0000
,
1000
0001
0010
0000
0001
0100
1000
0000
0110
0000
1000
0000
1001
0000
0100
0000
,
0010
0100
0001
0010
0100
1000
0010
0000
1001
0000
0100
0000
1010
0000
0010
0000
,
0100
0010
0001
0000
0100
0001
1000
0000
0110
0000
0010
0000
1100
0000
0001
0000
,
0010
0100
1000
0000
0100
0010
1000
0000
1010
0000
0100
0000
0011
0000
0100
0000
,
0010
1000
0001
0000
0100
1000
0010
0000
0011
0000
0100
0000
1100
0000
0001
0000
,
1000
0100
0001
0010
0100
1000
0001
0000
0001
0010
0100
0000
1000
0100
1000
0000
,
0010
0100
0001
0000
1000
0000
0101
0000
1000
0000
0101
0000
0010
0100
1000
0100
,
1000
0001
0100
0010
0100
0001
0010
0000
0010
0100
0001
0000
0001
0100
0010
0000
,
1000
0100
0010
0000
0100
0000
0011
0000
0100
0000
1100
0000
0001
0010
0100
0001
,
0100
1000
0100
0010
0001
0010
0100
0000
0001
0010
0100
0000
0001
0010
0100
0000
,
1000
0100
0010
0000
1000
0000
0110
0000
0001
0000
1100
0000
0001
0100
1000
0100
,
0001
0010
0100
0001
0010
0100
1000
0000
1000
0100
0010
0000
0010
0100
1000
0000
,
1000
0100
0010
0000
1000
0000
0101
0000
0010
0000
1001
0000
0100
0010
0100
1000
,
0010
0100
0001
1000
0010
0100
1000
0000
0100
0010
0001
0000
0010
0100
1000
0000
,
0100
0010
0001
0000
1000
0000
0110
0000
0001
0000
1100
0000
0010
0001
0100
0010
,
1000
0001
0100
0010
0001
1000
0001
0000
1000
0100
1000
0000
0010
0100
0010
0000
,
0010
0001
0010
0000
0001
0000
1010
0000
0001
0000
1001
0000
0100
0001
0100
1000
,
0010
0001
0100
1000
0010
0100
0001
0010
0100
1000
0100
1000
0010
0001
0010
0100
,
0010
0001
1000
0100
0010
0100
0010
1000
0100
0001
0100
0001
1000
0100
0010
0100
,
0001
0010
0100
1000
0100
0001
0100
1000
0010
1000
0001
0010
0100
0010
1000
0001
,
1000
0010
0100
0001
1000
0010
0100
0010
0100
0001
1000
0001
1000
0100
1000
0100
,
1000
0001
0010
0001
0010
0100
0010
0001
0100
0010
0001
1000
0001
1000
0010
0100
,
0010
0100
1000
0010
1000
0100
1000
0001
0010
0001
0100
1000
0001
0010
0100
0001
,
1000
0001
1000
0100
1000
0001
0010
1000
0010
0100
1000
0100
0001
0100
1000
0100
,
0001
0000
0000
0000
0100
0000
0000
0000
1000
0000
0000
0000
0100
0000
0000
0000
1000
0100
0010
0001
0010
0100
1000
0100
0010
0000
0001
0000
0100
0000
0010
0000
1000
0000
0100
0000
0001
0000
0010
0000
0100
0000
0000
0001
0000
0000
1000
0000
0000
0010
0000
0000
0100
0000
0000
0001
0000
0000
1000
0000
0000
0000
0010
0000
,
0000
0000
0001
0000
0000
0000
0100
0000
0000
0000
0001
0000
0000
0000
1000
0000
0000
0000
0010
0000
0000
0000
0000
0001
0000
0000
0000
0000
0010
0000
0000
0000
0000
1000
0000
0000
0000
0000
0100
0000
0000
0000
0000
0010
0000
0000
0000
0000
1000
0000
0000
0000
0000
0000
0001
0000
0000
0000
0000
0000
0010
0000
0000
0000
,
0000
0100
0000
0000
0010
0000
0000
0000
1000
0000
0000
0000
0001
0000
0000
0000
0010
0000
0000
0000
0100
0000
0000
0000
1000
0000
0000
0000
0001
0000
0000
0000
,
1100
1001
0110
0011
1000
0100
1000
0110
,
1000
0001
0010
0000
0100
0000
1001
0000
0010
0000
0100
0000
1000
0000
0101
0000
,
1000
0001
0010
0000
1000
0000
1010
0000
0100
0000
0001
0000
0100
0000
0010
0000
,
0001
1000
0010
0000
1000
0000
0011
0000
1000
0000
0100
0000
1000
0000
0011
0000
,
0100
1000
0010
0000
0100
0000
0101
0000
0010
0000
0100
0000
0001
0000
1100
0000
,
1000
0001
0100
0000
0010
0000
1001
0000
0100
0000
0001
0000
0010
0000
0101
0000
,
1000
0010
0100
0000
0001
0000
0110
0000
1000
0000
0100
0000
1000
0000
0110
0000
,
0100
0001
1000
0000
0100
0000
1010
0000
0100
0000
0010
0000
0100
0000
0011
0000
,
0100
0010
0001
0000
0100
0000
1010
0001
0100
0000
0101
0000
1000
0000
0101
0000
,
1000
0010
0000
0010
1000
0000
0101
1000
0001
0000
1010
0000
0100
0000
1010
0000
,
0010
0100
0000
0100
1000
0000
1010
0100
0010
0000
0101
0000
0010
0000
0101
0000
,
0100
0010
0000
1000
0010
0000
0101
1000
0001
0000
1100
0000
0010
0000
1100
0000
,
0001
0100
0000
0100
1000
0000
1002
0000
0103
0000
0021
0000
0031
0000
1200
0000
,
1300
0210
0301
0102
0100
0013
2001
0100
,
3001
2010
3010
2100
0001
0100
3010
1020
,
1000
0100
1030
0210
0001
1000
0301
0012
,
1000
0100
0013
2100
0001
0100
0010
0100
,
3010
0021
0130
0210
1000
0010
1000
0010
,
0001
1000
0310
2001
0100
0001
3010
0210
,
1000
0010
0301
2100
0100
0010
3001
0201
,
0001
0000
0010
0000
1300
0000
0011
1000
0001
0000
0101
0000
0010
0000
0101
0000
,
0100
1000
0000
1000
0010
0000
1100
0010
0001
0000
1001
0000
0100
0000
1001
0000
,
0010
0100
0000
0100
0001
0000
0011
1000
0001
0000
0011
0000
0100
0000
0011
0000
,
0010
1000
0000
1000
0010
0000
0101
0010
0001
0000
1100
0000
0001
0000
1100
0000
,
0100
1000
0000
0100
0001
0000
0110
0100
1000
0000
0110
0000
1000
0000
0110
0000
,
0010
0100
0000
0100
1000
0000
0101
0010
0100
0000
0011
0000
0100
0000
0011
0000
,
1000
0010
0000
0010
0100
0000
1001
1000
0001
0000
1100
0000
0010
0000
1100
0000
,
1000
0100
0000
0100
0001
0000
1001
0100
1000
0000
0101
0000
0010
0000
0101
0000
,
0001
0100
0000
0100
1000
0000
2002
0000
0000
3000
0013
0000
1000
0100
0010
0100
,
0001
1000
0100
1000
0100
2000
0000
0000
3200
0000
0000
0301
0010
0100
1000
0100
,
1000
0001
0100
0010
0100
0001
1000
0100
0001
0100
1000
0010
0002
0000
0000
0000
,
0003
1100
0000
0000
0001
0000
0000
0010
0000
0000
0101
0000
0000
1000
0000
0000
0010
0000
0000
0220
0000
0000
0000
0000
,
0000
0000
0330
0000
0010
1000
0001
1000
0000
0000
0000
0010
0000
0000
0100
0000
0000
0001
1000
0000
0110
0000
0000
0010
,
0000
0000
0100
0000
0000
0001
0000
0000
1000
0000
0000
1000
0100
0000
0010
0000
0000
1000
0000
0000
1001
0000
0000
0100
,
0000
0000
0010
0000
0000
0100
0000
0000
0010
0002
0000
0000
0000
0000
0000
0003
0000
0000
0100
0001
1000
0002
0000
0000
,
0000
0000
0000
0000
0000
0000
0000
0000
0000
0000
0000
0000
0003
0000
0000
0000
0200
0000
0000
0000
0000
0000
0000
0000
0000
0000
0000
0000
0000
0000
2300
0000
0000
0000
0000
0000
0000
0000
0000
0000
0000
0000
3000
0000
0000
0100
0000
0000
,
0020
0000
2030
0000
3002
0000
0203
0000
2300
0000
0000
0000
,
0000
3000
0000
0000
1100
0000
0010
0001
0100
0000
0000
0101
0000
0000
1000
0001
0100
0000
0000
0000
1100
0000
0000
0001
,
0020
0000
0000
0000
0000
0000
0000
0000
0000
0030
0000
0000
0001
1000
0000
0000
0110
0000
0000
0001
0000
0000
0101
0000
,
0000
0000
1000
0000
0010
0000
0100
0000
0000
0000
0001
0000
0010
0000
0100
0000
0000
0000
0100
0000
0000
1000
0000
0001
0000
1000
0000
0010
0000
1000
0000
0001
0000
1000
0000
0100
0000
1000
0000
0001
0000
1000
0000
0010
0000
1000
0000
0001
,
0000
1000
0000
0001
0000
1000
0000
0001
0000
1000
0000
0010
0000
1000
0000
0001
0000
1000
0000
0100
0000
1000
0000
0001
0000
1000
0000
0010
0000
1000
0000
0001
0000
1000
0000
0001
0000
1000
0000
0001
0000
1000
0000
0010
0000
1000
0000
0001
,
0000
1000
0000
0000
0000
0000
0010
0000
0000
0000
0000
0000
1000
0000
0000
0002
0000
0000
0000
0000
0000
0000
0000
0000
0000
0000
1000
0003
0000
0000
0000
0000
0000
0100
0000
0000
0020
0000
0000
0000
0000
0000
0000
0000
0000
0000
0000
0000
,
0000
0030
0000
1001
0000
0000
0000
0000
0000
0000
0000
0000
0000
0000
0000
0000
;

//---------------dance-single - ----------------
#NOTES:
     dance-single:
     :
     Easy:
     4:
     0.221,0.275,0.007,0.011,0.000,412.000,2.000,3.000,0.000,0.000:





0000
0000
0000
0000
,
0000
0000
0000
0000
,
0000
0000
0000
0000
,
0000
0000
0000
0000
,
0000
0000
0000
0000
,
0000
0000
0000
0000
,
0000
0000
0000
0000
,
0000
0000
0000
0000
,
0000
0000
0000
0000
,
0000
0000
0000
0000
,
0000
0000
0000
0000
,
0000
0000
0000
0000
,
0000
0010
0000
0100
,
0000
0010
0000
1000
,
0000
0001
0000
0100
,
0000
0001
0000
1000
,
0000
0100
0000
1000
,
0000
0010
0000
0100
,
0000
0001
0000
1000
,
0000
0100
0000
1000
,
0000
0100
0000
0010
,
0000
1000
0000
0001
,
0000
1000
0000
0100
,
0000
1000
0000
0010
,
0000
0100
0000
0001
,
0000
1000
0000
0100
,
0000
1000
0000
0001
,
0000
0100
0000
0010
,
0000
0010
0010
0010
,
0010
1000
1000
1000
,
1000
0001
0001
0001
,
0001
1000
1000
1000
,
1000
0100
0000
0010
,
0000
1000
0000
0001
,
0000
0100
0000
0001
,
0000
0100
0000
0010
,
0000
1000
0000
0100
,
0000
1000
0000
0010
,
0000
0100
0000
0010
,
0000
0100
0000
0001
,
0000
1000
0000
0100
,
0100
0100
0100
0001
,
0001
0001
0001
1000
,
1000
1000
1000
0100
,
0100
0100
0100
0010
,
0010
0010
0010
1000
,
1000
1000
1000
0001
,
0001
0001
0001
0010
,
0010
0010
0010
0100
,
0100
0100
0100
0001
,
0001
0001
0001
1000
,
1000
1000
1000
0100
,
0100
0100
0100
1000
,
1000
1000
1000
0010
,
0010
0010
0010
0100
,
0100
0100
0100
0001
,
0001
0010
0010
0010
,
0010
1000
1000
1000
,
1000
0001
0001
0001
,
0001
0100
0100
0100
,
0100
0010
0000
1000
,
0000
0001
0000
1000
,
0000
0100
0000
1000
,
0000
0010
0000
0100
,
0000
0001
0000
0100
,
0000
1000
0000
0100
,
0000
1000
0000
0010
,
0000
0100
0000
0001
,
0000
1000
1000
1000
,
1000
0001
0001
0001
,
0001
0010
0010
0010
,
0010
0100
0100
0100
,
0100
1000
1000
1000
,
1000
0001
0001
0001
,
0001
0100
0100
0100
,
0100
0010
0010
0010
,
0010
1000
1000
1000
,
1000
0001
0000
0010
,
0000
0100
0000
0010
,
0000
0100
0000
0100
,
0000
0010
0010
0010
,
0010
1000
1000
1000
,
1000
0001
0001
0001
,
0001
0010
0010
0010
,
0010
1000
0000
0100
,
0000
0010
0000
1000
,
0000
0100
0000
1000
,
0000
0001
0001
0001
,
0001
0001
0000
0100
,
0000
0010
0000
0100
,
0000
1000
0000
0100
,
0000
1000
0000
0100
,
0000
0010
0000
0010
,
0010
0010
0010
0010
,
0000
1000
0000
0001
,
0000
0100
0000
1000
,
0000
0100
0000
0010
,
0000
0100
0000
0010
,
0010
0010
0010
0010
,
0000
0100
0000
0001
,
0000
1000
1000
0001
,
0001
0100
0100
0010
,
0010
1000
1000
0100
,
0100
0001
0001
1000
,
1000
0010
0010
0100
,
0100
0001
0001
1000
,
1000
0100
0100
1000
,
1000
0010
0010
0100
,
0100
0001
0001
1000
,
1000
0100
0100
1000
,
1000
0010
0010
0100
,
0100
0001
0001
1000
,
1000
0100
0100
0010
,
0010
0001
0001
0010
,
0010
0001
0001
0100
,
0100
0001
0001
1000
,
1000
0100
0100
1000
,
1000
0010
0010
0100
,
0100
0010
0010
0100
,
0100
2000
0000
0000
,
0000
0000
0000
0000
,
0000
0000
0000
0000
,
0000
0000
3000
1000
0000
0000
0000
0100
,
0000
0000
0000
0010
0000
0000
0000
1000
,
0000
0000
0000
0001
0000
0000
0000
0100
,
0000
0000
0000
0010
0000
0000
0000
0100
,
0000
0000
0000
0010
0000
0000
0000
0100
,
0000
0000
0000
0010
0000
0000
0000
0100
,
0000
0000
0000
0010
0000
0000
0000
0100
,
0000
0000
0000
0001
0000
0000
0000
1000
,
0000
0000
0000
0001
0000
0001
0000
0001
,
0000
0001
0000
0100
0000
0100
0000
0100
,
0000
0100
0000
1000
0000
1000
0000
1000
,
0000
1000
0000
0010
0000
0010
0000
0010
,
0000
0010
0000
1000
0000
0000
0000
0001
,
0000
0000
0000
0100
0000
0000
0000
0010
,
0000
0000
0000
1000
0000
0000
0000
0001
,
0000
0000
0000
0100
0000
0000
0000
0001
,
0000
0000
0000
1000
0000
0000
0000
0100
,
0000
0000
0000
1000
0000
0000
0000
0010
,
0000
0000
0000
1000
0000
0000
0000
0010
,
0000
0000
0000
0100
0000
0000
0000
1000
,
0000
0000
0000
0001
0000
0001
0000
1000
,
0000
1000
0000
0010
0000
0010
0000
0100
,
0000
0100
0000
0010
0000
0010
0000
1000
,
0000
1000
0000
0100
0000
0100
0000
0001
,
0000
0001
0000
0010
0000
0010
0000
0001
,
0000
0001
0000
0100
0000
0100
0000
1000
,
0000
1000
0000
0010
0000
0010
0000
0100
,
0000
0100
0000
0001
0000
0001
0000
2002
,
0000
0000
0000
0000
,
0000
0000
0000
0000
,
0000
0000
0000
0000
,
0000
0000
0000
0000
,
0000
0000
0000
0000
,
0000
0000
0000
0000
,
0000
0000
0000
0000
,
0000
0000
0000
0000
,
0000
0000
0000
0000
,
0000
0000
0000
0000
,
0000
0000
0000
0000
,
0000
0000
0000
0000
,
0000
0000
0000
0000
,
0000
0000
0000
0000
,
0000
3003
1001
0000
0000
0000
0000
0000
;
